awkn
武林高手

[更早] [歐美] [劇情] [純凈版] [度盤/BT][千鈞一發 / 變種異煞][BD-MP4/ 2.57GB][英語雙字][1080p][H265][10bit][AAC 5.1]

-->


導演安德魯·尼科爾
編劇安德魯·尼科爾
主演伊桑·霍克 / 烏瑪·瑟曼 / 裘德·洛 / 艾倫·阿金 / 戈爾·維達爾 / 更多...
類型: 劇情 / 科幻 / 驚悚
制片國家/地區: 美國
語言: 英語 / 世界語
上映日期: 1997-10-24(美國)
片長: 106分鐘
又名: 變種異煞 / 自然人 / 戛塔卡 / 伽蒂卡 / 太空夢 / 基因代碼
IMDb鏈接: tt0119177

IMDB評分:7.8

豆瓣評分:8.7

千鈞一發的劇情簡介 · · · · · ·

  未來的世界,科技的力量勝過一切,基因決定命運,幾乎成為金科玉律。不幸文森特(伊桑?霍克 Ethan Hawke 飾)是一個基因不良的人,出生以來就決定了他近視和心臟病的缺陷,他只能活到30歲。于是父母為文森特增添了一個有著優良基因的弟弟。 
  文森特的夢想是漫游太空,然而惡劣的基因令他無法圓夢,直到他遇到了太空中心的杰羅姆(裘德?洛 Jude Law 飾)。杰羅姆有優秀的基因,卻在一次意外中半身癱瘓。二人決定調換身份,文森特千方百計隱藏自己的基因信息,每天都認真清洗掉自己的皮屑毛發,不暴露任何蛛絲馬跡。另一方面,杰羅姆幫他籌備進入太空前需要檢查的基因物品。事情進展得非常順利,然而一樁謀殺案和一根睫毛,讓事情節外生枝。


General

Complete name               : C:\Users\Administrator\Desktop\Gattaca.1997.BD1080p.x265.10bit.HEVC.ACC.5.1.英語雙字-AWKN.mp4

Format                      : MPEG-4

Format profile              : Base Media

Codec ID                    : iso4 (iso4/hvc1/iso6)

File size                   : 2.57 GiB

Duration                    : 1 h 46 min

Overall bit rate mode       : Variable

Overall bit rate            : 3 459 kb/s

Encoded date                : UTC 2019-11-21 13:34:03

Tagged date                 : UTC 2019-11-21 13:34:03


Video

ID                          : 1

Format                      : HEVC

Format/Info                 : High Efficiency Video Coding

Format profile              : Main [email protected]@Main

Codec ID                    : hvc1

Codec ID/Info               : High Efficiency Video Coding

Duration                    : 1 h 46 min

Bit rate                    : 3 200 kb/s

Maximum bit rate            : 21.2 Mb/s

Width                       : 1 920 pixels

Height                      : 1 080 pixels

Display aspect ratio        : 16:9

Frame rate mode             : Constant

Frame rate                  : 23.976 (24000/1001) FPS

Color space                 : YUV

Chroma subsampling          : 4:2:0

Bit depth                   : 10 bits

Bits/(Pixel*Frame)          : 0.064

Stream size                 : 2.38 GiB (93%)

Title                       : Gattaca.1997-AWKN

Writing library             : x265 2.9169e76b6bbcc:[Windows][GCC 8.2.0][64 bit] 10bit

Encoding settings           : cpuid=1049583 / frame-threads=4 / numa-pools=20 / wpp / no-pmode / no-pme / no-psnr / no-ssim / log-level=2 / input-csp=1 / input-res=1920x1080 / interlace=0 / total-frames=153144 / level-idc=0 / high-tier=1 / uhd-bd=0 / ref=4 / no-allow-non-conformance / no-repeat-headers / annexb / no-aud / no-hrd / info / hash=0 / no-temporal-layers / open-gop / min-keyint=23 / keyint=250 / gop-lookahead=0 / bframes=4 / b-adapt=2 / b-pyramid / bframe-bias=0 / rc-lookahead=25 / lookahead-slices=4 / scenecut=40 / radl=0 / no-intra-refresh / ctu=64 / min-cu-size=8 / rect / no-amp / max-tu-size=32 / tu-inter-depth=1 / tu-intra-depth=1 / limit-tu=0 / rdoq-level=2 / dynamic-rd=0.00 / no-ssim-rd / signhide / no-tskip / nr-intra=0 / nr-inter=0 / no-constrained-intra / strong-intra-smoothing / max-merge=3 / limit-refs=3 / limit-modes / me=3 / subme=3 / merange=57 / temporal-mvp / weightp / no-weightb / no-analyze-src-pics / deblock=0:0 / sao / no-sao-non-deblock / rd=4 / no-early-skip / rskip / no-fast-intra / no-tskip-fast / no-cu-lossless / no-b-intra / no-splitrd-skip / rdpenalty=0 / psy-rd=2.00 / psy-rdoq=1.00 / no-rd-refine / no-lossless / cbqpoffs=0 / crqpoffs=0 / rc=abr / bitrate=3200 / qcomp=0.60 / qpstep=4 / stats-write=0 / stats-read=2 / cplxblur=20.0 / qblur=0.5 / ipratio=1.40 / pbratio=1.30 / aq-mode=1 / aq-strength=1.00 / cutree / zone-count=0 / no-strict-cbr / qg-size=32 / no-rc-grain / qpmax=69 / qpmin=0 / no-const-vbv / sar=1 / overscan=0 / videoformat=5 / range=0 / colorprim=2 / transfer=2 / colormatrix=2 / chromaloc=0 / display-window=0 / max-cll=0,0 / min-luma=0 / max-luma=1023 / log2-max-poc-lsb=8 / vui-timing-info / vui-hrd-info / slices=1 / no-opt-qp-pps / no-opt-ref-list-length-pps / no-multi-pass-opt-rps / scenecut-bias=0.05 / no-opt-cu-delta-qp / no-aq-motion / no-hdr / no-hdr-opt / no-dhdr10-opt / no-idr-recovery-sei / analysis-reuse-level=5 / scale-factor=0 / refine-intra=0 / refine-inter=0 / refine-mv=0 / no-limit-sao / ctu-info=0 / no-lowpass-dct / refine-mv-type=0 / copy-pic=1 / max-ausize-factor=1.0 / no-dynamic-refine / no-single-sei

Encoded date                : UTC 2019-11-21 13:34:03

Tagged date                 : UTC 2019-11-21 13:34:47

Codec configuration box     : hvcC


Audio

ID                          : 2

Format                      : AAC LC

Format/Info                 : Advanced Audio Codec Low Complexity

Codec ID                    : mp4a-40-2

Duration                    : 1 h 46 min

Bit rate mode               : Variable

Bit rate                    : 255 kb/s

Maximum bit rate            : 408 kb/s

Channel(s)                  : 6 channels

Channel layout              : C L R Ls Rs LFE

Sampling rate               : 48.0 kHz

Frame rate                  : 46.875 FPS (1024 SPF)

Compression mode            : Lossy

Stream size                 : 195 MiB (7%)

Language                    : English

Encoded date                : UTC 2019-11-21 13:08:00

Tagged date                 : UTC 2019-11-21 13:34:47



https://pan.baidu.com/s/1ASuCDRfPvkRe6PFPIYkZ6A 提取碼:jtt1 



1 個附件 售價 大小 下載 時間

千鈞一發.[變種異煞].Gattaca.1997.BD1080p.x265.10bit.HEVC.ACC.5.1.英語雙字-AWKN.torrent 0 金幣 13.52K 4480 次 2月前

#1樓
發帖時間:2019-11-21 22:54:40   |   回復數:7
jokingcheung
一代宗師
謝謝分享
2月前 #2樓
cliff168
一派掌門
感謝分享好東西
2月前 #3樓
ak147
一代宗師
感謝大大分享
2月前 #4樓
ALLEN820213
隱世仙人♂
感謝樓主分享!!!
2月前 #5樓
繼續支持
一代宗師
謝謝樓主無私分享精彩電影,繼續支持你發片。
2月前 #6樓
911degrees
隱世仙人♂
非常感謝,謝謝分享
2月前 #7樓
99yy
一代宗師
年輕時候伊桑霍克帥呆了
2月前 #8樓
游客組