awkn
武林高手

[更早] [歐美] [劇情] [純凈版] [度盤/BT][瑪戈王后 / 瑪戈皇后][導演剪輯版][BD-MP4/ 3.82GB][法語中字][1080p][H265][10bit][AAC 5.1]

-->


導演帕特里斯·夏侯
編劇達妮埃爾·湯普森 / 帕特里斯·夏侯
主演伊莎貝爾·阿佳妮 / 丹尼爾·奧特伊 / 維爾娜·麗絲 / 讓·雨果·安格拉德 / 文森特·佩雷斯 / 更多...
類型: 劇情 / 愛情 / 傳記 / 歷史
制片國家/地區: 法國 / 德國 / 意大利
語言: 法語
上映日期: 1994-05-13
片長: 162 分鐘 / 159 分鐘(法國) / 139 分鐘(德國錄像帶版) / 174 分鐘(德國) / 144 分鐘(美國)
又名: 瑪戈皇后 / 瑪爾戈皇后 / 瑪歌皇后 / Queen Margot
IMDb鏈接: tt0110963

IMDB評分:7.4

豆瓣評分:7.8

瑪戈王后的劇情簡介 · · · · · ·

  十六世紀后半葉,法國處于“胡格諾戰爭”時期,天主教和新教殘酷戰爭不斷。而宮廷內部也奢華淫靡,腐敗不堪。為了平息連年內戰,信仰天主教的法國宮廷決定將瑪格麗特公主(Isabelle Adjani 伊莎貝爾·阿佳妮 飾)嫁給新教徒的首領納瓦爾國王亨利(Daniel Auteu il 丹尼爾·奧德耶 飾)。 
  1572年8月24日,婚禮在巴黎隆重舉行。正當人們沉浸在歡樂的氣氛中時。凱瑟琳皇后(Virna Lisi 飾)卻下達命令,發動了一場針對新教徒的血腥大屠殺,即西方歷史上著名的慘案——“圣巴托羅繆之夜”…… 
  影片改編自大仲馬的名著,榮獲1994年戛納電影節最佳女主角(維爾娜·麗絲)和評審團大獎,1995年凱撒電影節最佳女主角、最佳女配角、最佳男配角最佳劇本和最佳服裝設計等多項大獎。

General

Complete name               : C:\Users\Administrator\Desktop\Queen Margot.1994.New.Director's.Cut.BD1080p.x265.10bit.HEVC.ACC.5.1.法語中字-AWKN.mp4

Format                      : MPEG-4

Format profile              : Base Media

Codec ID                    : iso4 (iso4/hvc1/iso6)

File size                   : 3.83 GiB

Duration                    : 2 h 38 min

Overall bit rate mode       : Variable

Overall bit rate            : 3 455 kb/s

Encoded date                : UTC 2019-11-19 22:53:40

Tagged date                 : UTC 2019-11-19 22:53:40


Video

ID                          : 1

Format                      : HEVC

Format/Info                 : High Efficiency Video Coding

Format profile              : Main [email protected]@Main

Codec ID                    : hvc1

Codec ID/Info               : High Efficiency Video Coding

Duration                    : 2 h 38 min

Bit rate                    : 3 199 kb/s

Maximum bit rate            : 12.7 Mb/s

Width                       : 1 920 pixels

Height                      : 992 pixels

Display aspect ratio        : 1.935

Frame rate mode             : Constant

Frame rate                  : 23.976 (24000/1001) FPS

Color space                 : YUV

Chroma subsampling          : 4:2:0

Bit depth                   : 10 bits

Bits/(Pixel*Frame)          : 0.070

Stream size                 : 3.54 GiB (93%)

Writing library             : x265 2.9169e76b6bbcc:[Windows][GCC 8.2.0][64 bit] 10bit

Encoding settings           : cpuid=1049583 / frame-threads=4 / numa-pools=20 / wpp / no-pmode / no-pme / no-psnr / no-ssim / log-level=2 / input-csp=1 / input-res=1920x992 / interlace=0 / total-frames=228188 / level-idc=0 / high-tier=1 / uhd-bd=0 / ref=4 / no-allow-non-conformance / no-repeat-headers / annexb / no-aud / no-hrd / info / hash=0 / no-temporal-layers / open-gop / min-keyint=23 / keyint=250 / gop-lookahead=0 / bframes=4 / b-adapt=2 / b-pyramid / bframe-bias=0 / rc-lookahead=25 / lookahead-slices=4 / scenecut=40 / radl=0 / no-intra-refresh / ctu=64 / min-cu-size=8 / rect / no-amp / max-tu-size=32 / tu-inter-depth=1 / tu-intra-depth=1 / limit-tu=0 / rdoq-level=2 / dynamic-rd=0.00 / no-ssim-rd / signhide / no-tskip / nr-intra=0 / nr-inter=0 / no-constrained-intra / strong-intra-smoothing / max-merge=3 / limit-refs=3 / limit-modes / me=3 / subme=3 / merange=57 / temporal-mvp / weightp / no-weightb / no-analyze-src-pics / deblock=0:0 / sao / no-sao-non-deblock / rd=4 / no-early-skip / rskip / no-fast-intra / no-tskip-fast / no-cu-lossless / no-b-intra / no-splitrd-skip / rdpenalty=0 / psy-rd=2.00 / psy-rdoq=1.00 / no-rd-refine / no-lossless / cbqpoffs=0 / crqpoffs=0 / rc=abr / bitrate=3200 / qcomp=0.60 / qpstep=4 / stats-write=0 / stats-read=2 / cplxblur=20.0 / qblur=0.5 / ipratio=1.40 / pbratio=1.30 / aq-mode=1 / aq-strength=1.00 / cutree / zone-count=0 / no-strict-cbr / qg-size=32 / no-rc-grain / qpmax=69 / qpmin=0 / no-const-vbv / sar=1 / overscan=0 / videoformat=5 / range=0 / colorprim=2 / transfer=2 / colormatrix=2 / chromaloc=0 / display-window=0 / max-cll=0,0 / min-luma=0 / max-luma=1023 / log2-max-poc-lsb=8 / vui-timing-info / vui-hrd-info / slices=1 / no-opt-qp-pps / no-opt-ref-list-length-pps / no-multi-pass-opt-rps / scenecut-bias=0.05 / no-opt-cu-delta-qp / no-aq-motion / no-hdr / no-hdr-opt / no-dhdr10-opt / no-idr-recovery-sei / analysis-reuse-level=5 / scale-factor=0 / refine-intra=0 / refine-inter=0 / refine-mv=0 / no-limit-sao / ctu-info=0 / no-lowpass-dct / refine-mv-type=0 / copy-pic=1 / max-ausize-factor=1.0 / no-dynamic-refine / no-single-sei

Encoded date                : UTC 2019-11-19 22:53:40

Tagged date                 : UTC 2019-11-19 22:54:42

Codec configuration box     : hvcC


Audio

ID                          : 2

Format                      : AAC LC

Format/Info                 : Advanced Audio Codec Low Complexity

Codec ID                    : mp4a-40-2

Duration                    : 2 h 38 min

Bit rate mode               : Variable

Bit rate                    : 252 kb/s

Maximum bit rate            : 330 kb/s

Channel(s)                  : 6 channels

Channel layout              : C L R Ls Rs LFE

Sampling rate               : 48.0 kHz

Frame rate                  : 46.875 FPS (1024 SPF)

Compression mode            : Lossy

Stream size                 : 286 MiB (7%)

Encoded date                : UTC 2019-11-19 22:19:16

Tagged date                 : UTC 2019-11-19 22:54:42



https://pan.baidu.com/s/15U5SPINjP0SLcyAfUC1Ghw 提取碼:5zfz 



1 個附件 售價 大小 下載 時間

瑪戈王后.Queen.Margot.1994.DC.BD1080p.x265.10bit.HEVC.ACC.法語中字-AWKN.torrent 0 金幣 19.81K 12740 次 2月前

#1樓
發帖時間:2019-11-21 20:59:09   |   回復數:9
cliff168
一派掌門
感謝分享好東西
2月前 #2樓
繼續支持
一代宗師
謝謝樓主無私分享,繼續支持你發片。
2月前 #3樓
jokingcheung
一代宗師
謝謝分享
2月前 #4樓
ak147
一代宗師
感謝大大分享
2月前 #5樓
ALLEN820213
隱世仙人♂
感謝樓主分享!!!
2月前 #6樓
木星
一派掌門
謝謝樓主分享
2月前 #7樓
911degrees
隱世仙人♂
非常感謝,謝謝分享
2月前 #8樓
cycymmmm
武林高手
謝謝樓主分享,辛苦辛苦
2月前 #9樓
guge
武林高手
女主很美~
2月前 #10樓
游客組