coor
一代宗師

[2017] [韓國] [科幻] [WEB-1080P] 清醒夢 Lucid.Dream.2017.KOREAN.1080p.NF.WEBRip.DD5.1.x264-SB 6.89GB

-->

帖子完整標題:清醒夢 Lucid.Dream.2017.KOREAN.1080p.NF.WEBRip.DD5.1.x264-SB 6.89GB




◎譯  名 清醒夢 / Lucid Dream / 魯世德之夢
◎片  名 ??? ??
◎年  代 2017
◎產  地 韓國
◎類  別 科幻 / 驚悚
◎語  言 韓語
◎上映日期 2017-02-22(韓國)
◎IMDb評分 6.1/10 from 2316 users
◎IMDb鏈接 https://www.imdb.com/title/tt6830780
◎豆瓣評分 5.8/10 from 951 users
◎豆瓣鏈接 https://movie.douban.com/subject/26253644/
◎片  長 101分鐘
◎導  演 金俊誠 Kim Joon-seong-I
◎編  劇 金俊誠 Kim Joon-seong-I
◎主  演 高修 Soo Go
      薛耿求 Kyung-gu Sol
      樸有天 Yoo-chun Park
      姜惠貞 Hye-jeong Kang
      樸仁煥 In-hwan Park
      千浩振 Ho-jin Jeon
      全石浩 Suk-ho Jun
      李石 Suk Lee
      李詩雅 Shi-ah Lee


◎標  簽 韓國 | 懸疑 | 科幻 | 犯罪 | 驚悚 | 2017 | 劇情 | 奇幻

◎簡  介

  “清醒夢”(Lucid Dreaming)是在做夢時保持清醒的狀態,又稱作清明夢。影片講述的是在3年前丟失了孩子的父親通過清醒夢在夢中尋找線索的犯罪驚悚片。
  《清醒夢》中,高洙飾演的“大浩”是熱血記者出身,在職場上一旦盯緊什么事件就要追究到底,在丟了兒子之后通過清醒夢尋找線索,展現了一個孤軍奮斗的父親形象。薛景求將在片中飾演對詭異事件很感興趣的警察“方燮”一角,他在得知事件之后也非常積極地幫助高洙。
  姜惠貞飾演的是“大浩”的朋友“素賢”,也是精神科醫生,對大浩在清醒夢中尋找線索給予指導。在“大浩”周邊徘徊的神秘人物則由樸有天飾演。因為過去的因緣而積極幫助“大浩”的70歲退休黑道組織成員“成弼”由樸仁煥飾演。還有千振浩將飾演身懷秘密的大集團會長“趙明哲”。
Video
ID : 1
Format : AVC
Format/Info : Advanced Video Codec
Format profile : [email protected]
Format settings : CABAC / 5 Ref Frames
Format settings, CABAC : Yes
Format settings, Reference frames : 5 frames
Codec ID : V_MPEG4/ISO/AVC
Duration : 1 h 41 min
Bit rate : 8 855 kb/s
Width : 1 920 pixels
Height : 800 pixels
Display aspect ratio : 2.40:1
Frame rate mode : Constant
Frame rate : 24.000 FPS
Color space : YUV
Chroma subsampling : 4:2:0
Bit depth : 8 bits
Scan type : Progressive
Bits/(Pixel*Frame) : 0.240
Stream size : 6.30 GiB (91%)
Title : Lucid.Dream.2017.KOREAN.1080p.NF.WEBRip.DD5.1.x264-SB
Writing library : x264 core 148 r2744 b97ae06
Encoding settings : cabac=1 / ref=5 / deblock=1:-3:-3 / analyse=0x3:0x133 / me=hex / subme=7 / psy=1 / psy_rd=1.00:0.00 / mixed_ref=1 / me_range=16 / chroma_me=1 / trellis=1 / 8x8dct=1 / cqm=0 / deadzone=21,11 / fast_pskip=1 / chroma_qp_offset=-2 / threads=6 / lookahead_threads=1 / sliced_threads=0 / slices=4 / nr=0 / decimate=1 / interlaced=0 / bluray_compat=0 / constrained_intra=0 / bframes=3 / b_pyramid=2 / b_adapt=1 / b_bias=0 / direct=1 / weightb=1 / open_gop=0 / weightp=2 / keyint=240 / keyint_min=24 / scenecut=40 / intra_refresh=0 / rc_lookahead=50 / rc=crf / mbtree=1 / crf=16.0 / qcomp=0.60 / qpmin=0 / qpmax=69 / qpstep=4 / vbv_maxrate=17310 / vbv_bufsize=18510 / crf_max=0.0 / nal_hrd=none / filler=0 / ip_ratio=1.40 / aq=1:1.50
Default : Yes
Forced : No

Audio
ID : 2
Format : AC-3
Format/Info : Audio Coding 3
Commercial name : Dolby Digital
Codec ID : A_AC3
Duration : 1 h 41 min
Bit rate mode : Constant
Bit rate : 640 kb/s
Channel(s) : 6 channels
Channel layout : L R C LFE Ls Rs
Sampling rate : 48.0 kHz
Frame rate : 31.250 FPS (1536 SPF)
Compression mode : Lossy
Stream size : 466 MiB (7%)
Title : Lucid.Dream.2017.KOREAN.1080p.NF.WEBRip.DD5.1.x264-SB
Language : Korean
Service kind : Complete Main
Default : No
Forced : No

Text #1
ID : 3
Format : UTF-8
Codec ID : S_TEXT/UTF8
Codec ID/Info : UTF-8 Plain Text
Language : English
Default : Yes
Forced : No

Text #2
ID : 4
Format : UTF-8
Codec ID : S_TEXT/UTF8
Codec ID/Info : UTF-8 Plain Text
Language : French
Default : No
Forced : No

Text #3
ID : 5
Format : UTF-8
Codec ID : S_TEXT/UTF8
Codec ID/Info : UTF-8 Plain Text
Language : German
Default : No
Forced : No

Text #4
ID : 6
Format : UTF-8
Codec ID : S_TEXT/UTF8
Codec ID/Info : UTF-8 Plain Text
Language : Dutch
Default : No
Forced : No





1 個附件 售價 大小 下載 時間

Lucid.Dream.2017.KOREAN.1080p.NF.WEBRip.DD5.1.x264-SB.torrent 0 金幣 69.51K 420 次 1月前

#1樓
發帖時間:2020-02-17 06:18:50   |   回復數:3
911degrees
隱世仙人♂
非常感謝,謝謝分享
1月前 #2樓
liyouchai
隱世仙人♂
謝謝樓主分享資源
1月前 #3樓
kola13
一派掌門
感謝分享
1月前 #4樓
游客組