coor
一代宗師

[2018] [韓國] [劇情] [WEB-1080P] 念力 Psychokinesis.2018.KOREAN.1080p.NF.WEBRip.DD5.1.x264-NTG 3.13GB

-->

帖子完整標題:念力 Psychokinesis.2018.KOREAN.1080p.NF.WEBRip.DD5.1.x264-NTG 3.13GB




◎譯  名 念力 / Psychokinesis / Superpower / 心靈致動
◎片  名 ??
◎年  代 2018
◎產  地 韓國
◎類  別 劇情 / 喜劇 / 奇幻
◎語  言 韓語
◎上映日期 2018-01-31(韓國)
◎IMDb評分 5.9/10 from 3682 users
◎IMDb鏈接 https://www.imdb.com/title/tt6890582
◎豆瓣評分 5.6/10 from 4259 users
◎豆瓣鏈接 https://movie.douban.com/subject/26864178/
◎片  長 101分鐘
◎導  演 延尚昊 Sang-ho Yeon
◎編  劇 延尚昊 Sang-ho Yeon
◎主  演 柳承龍 Seung-yong Ryoo
      沈恩京 Eun-kyung Shim
      樸正民 Jeong-min Park
      鄭有美 Yu-mi Jung
      金敏載 Kim Min-jae
      芮秀貞 Ye Soo-jung
      鄭煐禥 Young-ki Jung
      金英善 Yeong-seon Kim
      李濟延 Lee Je-yeon
      金度允 Kim Do-yoon
      太恒浩 Tae Hang-ho
      康相元 Kang Sang-won
      尹智旭 Yoon Ji-wook
      嚴智萬 Ji-man Eom
      金基天 Ki-cheon Kim
      函勝敏 Sung-min Ham
      高娜熙 Go Na-hee
      李正恩 Lee Jeong-eun
      李承勇 Lee Seung-yong
      禹正國 Woo Jung-kook
      姜德重 Kang Deok-joong


◎標  簽 韓國 | 超能力 | 科幻 | 奇幻 | 喜劇 | 2018 | 動作 | 劇情

◎簡  介

  平凡的銀行警衛大叔申碩憲(柳承龍 飾),偶然間發現自己擁有一種可以控制身邊物體的能力——念力。此時,十幾年不見的女兒(沈恩京 飾)突然聯系了他,原來樂觀開朗的陋微已經成為了一個自力更生的炸雞店小業主,但在一夜之間深陷危機。為此,碩憲決定打破原本尋常的生活,沖破重重阻礙幫助女兒,這種神秘的“念力”也隨之變得愈發強大,也為他們的生活帶來了不可改變的影響……

◎獲獎情況

  第55屆韓國電影大鐘獎(2018)
  最佳女配角(提名) 鄭有美
Video
ID : 1
Format : AVC
Format/Info : Advanced Video Codec
Format profile : [email protected]
Format settings : CABAC / 3 Ref Frames
Format settings, CABAC : Yes
Format settings, Reference frames : 3 frames
Codec ID : V_MPEG4/ISO/AVC
Duration : 1 h 41 min
Bit rate mode : Variable
Bit rate : 4 020 kb/s
Maximum bit rate : 6 030 kb/s
Width : 1 920 pixels
Height : 1 080 pixels
Display aspect ratio : 16:9
Frame rate mode : Constant
Frame rate : 23.976 (24000/1001) FPS
Color space : YUV
Chroma subsampling : 4:2:0
Bit depth : 8 bits
Scan type : Progressive
Bits/(Pixel*Frame) : 0.081
Stream size : 2.86 GiB (91%)
Writing library : x264 core 148 r2715 7e75228
Encoding settings : cabac=1 / ref=3 / deblock=1:0:0 / analyse=0x1:0x111 / me=umh / subme=10 / psy=1 / psy_rd=1.00:0.00 / mixed_ref=1 / me_range=24 / chroma_me=1 / trellis=2 / 8x8dct=0 / cqm=0 / deadzone=21,11 / fast_pskip=1 / chroma_qp_offset=-2 / threads=8 / lookahead_threads=1 / sliced_threads=0 / nr=0 / decimate=1 / interlaced=0 / bluray_compat=0 / stitchable=1 / constrained_intra=0 / bframes=2 / b_pyramid=0 / b_adapt=2 / b_bias=0 / direct=3 / weightb=1 / open_gop=0 / weightp=2 / keyint=48 / keyint_min=25 / scenecut=0 / intra_refresh=0 / rc_lookahead=48 / rc=2pass / mbtree=1 / bitrate=4020 / ratetol=1.0 / qcomp=0.50 / qpmin=6 / qpmax=51 / qpstep=4 / cplxblur=20.0 / qblur=0.5 / vbv_maxrate=6030 / vbv_bufsize=8040 / nal_hrd=vbr / filler=0 / ip_ratio=1.40 / aq=1:1.00
Default : Yes
Forced : No

Audio
ID : 2
Format : AC-3
Format/Info : Audio Coding 3
Commercial name : Dolby Digital
Codec ID : A_AC3
Duration : 1 h 41 min
Bit rate mode : Constant
Bit rate : 384 kb/s
Channel(s) : 6 channels
Channel layout : L R C LFE Ls Rs
Sampling rate : 48.0 kHz
Frame rate : 31.250 FPS (1536 SPF)
Compression mode : Lossy
Stream size : 280 MiB (9%)
Title : Korean
Language : Korean
Service kind : Complete Main
Default : Yes
Forced : No

Text #1
ID : 3
Format : UTF-8
Codec ID : S_TEXT/UTF8
Codec ID/Info : UTF-8 Plain Text
Duration : 1 h 36 min
Bit rate : 61 b/s
Count of elements : 1361
Stream size : 43.5 KiB (0%)
Language : English
Default : Yes
Forced : No

Text #2
ID : 4
Format : UTF-8
Codec ID : S_TEXT/UTF8
Codec ID/Info : UTF-8 Plain Text
Duration : 1 h 36 min
Bit rate : 107 b/s
Count of elements : 1363
Stream size : 76.1 KiB (0%)
Language : Arabic
Default : No
Forced : No

Text #3
ID : 5
Format : UTF-8
Codec ID : S_TEXT/UTF8
Codec ID/Info : UTF-8 Plain Text
Duration : 1 h 36 min
Bit rate : 57 b/s
Count of elements : 1362
Stream size : 40.9 KiB (0%)
Language : Danish
Default : No
Forced : No

Text #4
ID : 6
Format : UTF-8
Codec ID : S_TEXT/UTF8
Codec ID/Info : UTF-8 Plain Text
Duration : 1 h 36 min
Bit rate : 61 b/s
Count of elements : 1366
Stream size : 43.5 KiB (0%)
Language : German
Default : No
Forced : No

Text #5
ID : 7
Format : UTF-8
Codec ID : S_TEXT/UTF8
Codec ID/Info : UTF-8 Plain Text
Duration : 1 h 36 min
Bit rate : 96 b/s
Count of elements : 1369
Stream size : 68.8 KiB (0%)
Language : Greek
Default : No
Forced : No

Text #6
ID : 8
Format : UTF-8
Codec ID : S_TEXT/UTF8
Codec ID/Info : UTF-8 Plain Text
Duration : 1 h 36 min
Bit rate : 59 b/s
Count of elements : 1369
Stream size : 42.4 KiB (0%)
Language : Spanish
Default : No
Forced : No

Text #7
ID : 9
Format : UTF-8
Codec ID : S_TEXT/UTF8
Codec ID/Info : UTF-8 Plain Text
Duration : 1 h 36 min
Bit rate : 59 b/s
Count of elements : 1369
Stream size : 42.5 KiB (0%)
Title : European
Language : Spanish
Default : No
Forced : No

Text #8
ID : 10
Format : UTF-8
Codec ID : S_TEXT/UTF8
Codec ID/Info : UTF-8 Plain Text
Duration : 1 h 36 min
Bit rate : 59 b/s
Count of elements : 1366
Stream size : 42.1 KiB (0%)
Language : Finnish
Default : No
Forced : No

Text #9
ID : 11
Format : UTF-8
Codec ID : S_TEXT/UTF8
Codec ID/Info : UTF-8 Plain Text
Duration : 1 h 36 min
Bit rate : 58 b/s
Count of elements : 1363
Stream size : 41.2 KiB (0%)
Language : French
Default : No
Forced : No

Text #10
ID : 12
Format : UTF-8
Codec ID : S_TEXT/UTF8
Codec ID/Info : UTF-8 Plain Text
Duration : 1 h 36 min
Bit rate : 93 b/s
Count of elements : 1367
Stream size : 66.2 KiB (0%)
Language : Hebrew
Default : No
Forced : No

Text #11
ID : 13
Format : UTF-8
Codec ID : S_TEXT/UTF8
Codec ID/Info : UTF-8 Plain Text
Duration : 1 h 36 min
Bit rate : 57 b/s
Count of elements : 1365
Stream size : 41.0 KiB (0%)
Language : Italian
Default : No
Forced : No

Text #12
ID : 14
Format : UTF-8
Codec ID : S_TEXT/UTF8
Codec ID/Info : UTF-8 Plain Text
Duration : 1 h 36 min
Bit rate : 42 b/s
Count of elements : 1361
Stream size : 30.0 KiB (0%)
Language : Japanese
Default : No
Forced : No

Text #13
ID : 15
Format : UTF-8
Codec ID : S_TEXT/UTF8
Codec ID/Info : UTF-8 Plain Text
Duration : 1 h 36 min
Bit rate : 54 b/s
Count of elements : 1369
Stream size : 38.9 KiB (0%)
Language : Norwegian Bokmal
Default : No
Forced : No

Text #14
ID : 16
Format : UTF-8
Codec ID : S_TEXT/UTF8
Codec ID/Info : UTF-8 Plain Text
Duration : 1 h 36 min
Bit rate : 53 b/s
Count of elements : 1364
Stream size : 37.9 KiB (0%)
Language : Dutch
Default : No
Forced : No

Text #15
ID : 17
Format : UTF-8
Codec ID : S_TEXT/UTF8
Codec ID/Info : UTF-8 Plain Text
Duration : 1 h 36 min
Bit rate : 52 b/s
Count of elements : 1367
Stream size : 37.5 KiB (0%)
Language : Polish
Default : No
Forced : No

Text #16
ID : 18
Format : UTF-8
Codec ID : S_TEXT/UTF8
Codec ID/Info : UTF-8 Plain Text
Duration : 1 h 36 min
Bit rate : 57 b/s
Count of elements : 1365
Stream size : 40.8 KiB (0%)
Language : Portuguese
Default : No
Forced : No

Text #17
ID : 19
Format : UTF-8
Codec ID : S_TEXT/UTF8
Codec ID/Info : UTF-8 Plain Text
Duration : 1 h 36 min
Bit rate : 58 b/s
Count of elements : 1368
Stream size : 41.2 KiB (0%)
Title : Brazilian
Language : Portuguese
Default : No
Forced : No

Text #18
ID : 20
Format : UTF-8
Codec ID : S_TEXT/UTF8
Codec ID/Info : UTF-8 Plain Text
Duration : 1 h 36 min
Bit rate : 58 b/s
Count of elements : 1371
Stream size : 41.5 KiB (0%)
Language : Romanian
Default : No
Forced : No

Text #19
ID : 21
Format : UTF-8
Codec ID : S_TEXT/UTF8
Codec ID/Info : UTF-8 Plain Text
Duration : 1 h 36 min
Bit rate : 59 b/s
Count of elements : 1369
Stream size : 41.9 KiB (0%)
Language : Swedish
Default : No
Forced : No

Text #20
ID : 22
Format : UTF-8
Codec ID : S_TEXT/UTF8
Codec ID/Info : UTF-8 Plain Text
Duration : 1 h 36 min
Bit rate : 128 b/s
Count of elements : 1361
Stream size : 91.5 KiB (0%)
Language : Thai
Default : No
Forced : No

Text #21
ID : 23
Format : UTF-8
Codec ID : S_TEXT/UTF8
Codec ID/Info : UTF-8 Plain Text
Duration : 1 h 36 min
Bit rate : 55 b/s
Count of elements : 1368
Stream size : 39.5 KiB (0%)
Language : Turkish
Default : No
Forced : No

Text #22
ID : 24
Format : UTF-8
Codec ID : S_TEXT/UTF8
Codec ID/Info : UTF-8 Plain Text
Duration : 1 h 36 min
Bit rate : 75 b/s
Count of elements : 1357
Stream size : 53.7 KiB (0%)
Language : Vietnamese
Default : No
Forced : No

Text #23
ID : 25
Format : UTF-8
Codec ID : S_TEXT/UTF8
Codec ID/Info : UTF-8 Plain Text
Duration : 1 h 36 min
Bit rate : 56 b/s
Count of elements : 1368
Stream size : 40.1 KiB (0%)
Title : Simplified
Language : Chinese
Default : No
Forced : No

Text #24
ID : 26
Format : UTF-8
Codec ID : S_TEXT/UTF8
Codec ID/Info : UTF-8 Plain Text
Duration : 1 h 36 min
Bit rate : 57 b/s
Count of elements : 1368
Stream size : 41.0 KiB (0%)
Title : Traditional
Language : Chinese
Default : No
Forced : No





1 個附件 售價 大小 下載 時間

Psychokinesis.2018.KOREAN.1080p.NF.WEBRip.DD5.1.x264-NTG.torrent 0 金幣 63.21K 833 次 1月前

#1樓
發帖時間:2020-02-17 06:04:42   |   回復數:3
911degrees
隱世仙人♂
非常感謝,謝謝分享
1月前 #2樓
liyouchai
隱世仙人♂
謝謝樓主分享資源
1月前 #3樓
kola13
一派掌門
感謝分享
1月前 #4樓
游客組