coor
武林盟主

[2007] [其他] [科幻] [WEB-1080P] 壞女孩島 Bad.Girl.Island.2007.1080p.AMZN.WEBRip.DDP2.0.x264-NTG 8.60GB

-->

帖子完整標題:壞女孩島 Bad.Girl.Island.2007.1080p.AMZN.WEBRip.DDP2.0.x264-NTG 8.60GB




◎譯  名 壞女孩島
◎片  名 Bad Girl Island
◎年  代 2007
◎產  地 Bahamas
◎類  別 科幻 / 懸疑
◎語  言 英語
◎上映日期 2007
◎IMDb評分 3.4/10 from 474 users
◎IMDb鏈接 https://www.imdb.com/title/tt1031276
◎豆瓣評分 0/10 from 0 users
◎豆瓣鏈接 https://movie.douban.com/subject/4729949/
◎導  演 Stewart Raffill

◎標  簽 電影 | 情色 | 美國 | 驚悚 | 懸疑 | 待下載 | 巴哈馬 | 安娜琳·麥考德

◎簡  介

  暫無相關劇情介紹
Video
ID : 1
Format : AVC
Format/Info : Advanced Video Codec
Format profile : [email protected]
Format settings : CABAC / 4 Ref Frames
Format settings, CABAC : Yes
Format settings, Reference frames : 4 frames
Codec ID : V_MPEG4/ISO/AVC
Duration : 1 h 33 min
Bit rate : 13.0 Mb/s
Width : 1 920 pixels
Height : 1 080 pixels
Display aspect ratio : 16:9
Frame rate mode : Constant
Frame rate : 23.976 (24000/1001) FPS
Color space : YUV
Chroma subsampling : 4:2:0
Bit depth : 8 bits
Scan type : Progressive
Bits/(Pixel*Frame) : 0.261
Stream size : 8.45 GiB (98%)
Default : Yes
Forced : No
Color range : Limited
Color primaries : BT.709
Transfer characteristics : BT.709
Matrix coefficients : BT.709

Audio
ID : 2
Format : E-AC-3
Format/Info : Enhanced AC-3
Commercial name : Dolby Digital Plus
Codec ID : A_EAC3
Duration : 1 h 33 min
Bit rate mode : Constant
Bit rate : 224 kb/s
Channel(s) : 2 channels
Channel layout : L R
Sampling rate : 48.0 kHz
Frame rate : 31.250 FPS (1536 SPF)
Compression mode : Lossy
Stream size : 149 MiB (2%)
Language : English
Service kind : Complete Main
Default : Yes
Forced : No

Text
ID : 3
Format : UTF-8
Codec ID : S_TEXT/UTF8
Codec ID/Info : UTF-8 Plain Text
Duration : 1 h 31 min
Bit rate : 74 b/s
Count of elements : 1613
Stream size : 49.9 KiB (0%)
Title : SDH
Language : English
Default : No
Forced : No





1 個附件 售價 大小 下載 時間

Bad.Girl.Island.2007.1080p.AMZN.WEBRip.DDP2.0.x264-NTG.torrent 0 金幣 86.49K 1470 次 14天前

#1樓
發帖時間:2020-01-15 07:40:23   |   回復數:2
911degrees
隱世仙人♂
非常感謝,謝謝分享
13天前 #2樓
xiaoyonglian
武林盟主
謝謝樓主分享
13天前 #3樓
游客組