coor
武林盟主

[更 早] [其他] [動作] [WEB-1080P] 手到擒來/人餌 Bait.2000.1080p.WEB-DL.DD5.1.H264-FGT 3.60GB

-->

帖子完整標題:手到擒來/人餌 Bait.2000.1080p.WEB-DL.DD5.1.H264-FGT 3.60GB




◎譯  名 手到擒來 / 人餌 / 危險陷阱 / 誘餌
◎片  名 Bait
◎年  代 2000
◎產  地 加拿大 / 澳大利亞 / 美國
◎類  別 動作 / 驚悚 / 犯罪
◎語  言 英語
◎上映日期 2000-08-29
◎IMDb評分 5.8/10 from 10196 users
◎IMDb鏈接 https://www.imdb.com/title/tt0211938
◎豆瓣評分 6.4/10 from 259 users
◎豆瓣鏈接 https://movie.douban.com/subject/1300871/
◎片  長 119 分鐘
◎導  演 安東尼·福奎阿 Antoine Fuqua
◎編  劇 Robert Kuhn (Adam Scheinman) / 安德魯 沙因曼 (Andrew Scheinman) / 托尼 吉爾羅伊 (Tony Gilroy)
◎主  演 Jamie Foxx
      David Morse


◎標  簽 美國 | 動作 | 犯罪 | 美國電影 | 杰米·福克斯 | 2000 | 喜劇 | 電影

◎簡  介

  當美國聯邦金庫被盜走價值四千萬美元的黃金后,探員科林汀(Clenteen)被財政部受命調查此事。為了找回黃金,抓住主要案犯布里斯托 (Bristol),科林汀決定從被抓的案犯同謀約翰(John Jaster)入手。然而事有不測,在審訊中約翰因心臟病突發死亡,這樣唯一的線索也失去了。于是,科林汀利用約翰的獄友阿爾文(Alvin)作誘餌,設了一個陷阱,讓布里斯托不請自到,并將其抓獲……
Video
ID : 1
Format : AVC
Format/Info : Advanced Video Codec
Format profile : [email protected]
Format settings : CABAC / 5 Ref Frames
Format settings, CABAC : Yes
Format settings, Reference frames : 5 frames
Codec ID : V_MPEG4/ISO/AVC
Duration : 1 h 59 min
Bit rate : 3 858 kb/s
Width : 1 908 pixels
Height : 810 pixels
Display aspect ratio : 2.35:1
Frame rate mode : Constant
Frame rate : 23.976 (24000/1001) FPS
Color space : YUV
Chroma subsampling : 4:2:0
Bit depth : 8 bits
Scan type : Progressive
Bits/(Pixel*Frame) : 0.104
Stream size : 3.21 GiB (89%)
Title : Bait.2000.1080p.WEB-DL.DD5.1.H264-FGT
Language : English
Default : Yes
Forced : No
Color range : Limited
Color primaries : BT.709
Transfer characteristics : BT.709
Matrix coefficients : BT.709

Audio
ID : 2
Format : AC-3
Format/Info : Audio Coding 3
Commercial name : Dolby Digital
Codec ID : A_AC3
Duration : 1 h 59 min
Bit rate mode : Constant
Bit rate : 384 kb/s
Channel(s) : 6 channels
Channel layout : L R C LFE Ls Rs
Sampling rate : 48.0 kHz
Frame rate : 31.250 FPS (1536 SPF)
Bit depth : 16 bits
Compression mode : Lossy
Stream size : 327 MiB (9%)
Title : Bait.2000.1080p.WEB-DL.DD5.1.H264-FGT
Language : English
Service kind : Complete Main
Default : Yes
Forced : No

Text
ID : 3
Format : UTF-8
Codec ID : S_TEXT/UTF8
Codec ID/Info : UTF-8 Plain Text
Language : English
Default : No
Forced : No

Menu
00:00:00.000 : en:1.
00:02:38.000 : en:2.
00:05:15.000 : en:3.
00:08:34.000 : en:4.
00:11:37.000 : en:5.
00:15:45.000 : en:6.
00:19:27.000 : en:7.
00:22:35.000 : en:8.
00:27:40.000 : en:9.
00:31:31.000 : en:10.
00:35:03.000 : en:11.
00:37:55.000 : en:12.
00:40:15.000 : en:13.
00:47:03.000 : en:14.
00:49:36.000 : en:15.
00:51:27.000 : en:16.
00:56:10.000 : en:17.
01:00:21.000 : en:18.
01:03:20.000 : en:19.
01:05:06.000 : en:20.
01:09:21.000 : en:21.
01:11:11.000 : en:22.
01:14:56.000 : en:23.
01:17:06.000 : en:24.
01:20:20.000 : en:25.
01:23:13.000 : en:26.
01:26:57.000 : en:27.
01:29:53.000 : en:28.
01:34:37.000 : en:29.
01:36:35.000 : en:30.
01:40:42.000 : en:31.
01:43:24.000 : en:32.
01:46:01.000 : en:33.
01:50:52.000 : en:34.
01:53:16.000 : en:35.
01:55:39.000 : en:36.





1 個附件 售價 大小 下載 時間

Bait.2000.1080p.WEB-DL.DD5.1.H264-FGT.torrent 0 金幣 72.66K 168 次 5天前

#1樓
發帖時間:2020-01-15 05:53:54   |   回復數:1
911degrees
隱世仙人♂
非常感謝,謝謝分享
4天前 #2樓
游客組