conanlcg
超級版主

[更 早] [歐美] [劇情] [WEB-1080P] 瓊樓舊夢話當年/榮華富貴 Rich.and.Famous.1981.1080p.WEBRip.x264-RARBG 2.22GB

-->

帖子完整標題:瓊樓舊夢話當年/榮華富貴 Rich.and.Famous.1981.1080p.WEBRip.x264-RARBG 2.22GB




◎譯  名 瓊樓舊夢話當年 / 榮華富貴
◎片  名 Rich and Famous
◎年  代 1981
◎產  地 美國
◎類  別 劇情
◎語  言 英語
◎上映日期 1981-09-23
◎IMDb評分 5.9/10 from 1445 users
◎IMDb鏈接 https://www.imdb.com/title/tt0082992
◎豆瓣評分 6.1/10 from 36 users
◎豆瓣鏈接 https://movie.douban.com/subject/1301539/
◎片  長 117 分鐘
◎導  演 George Cukor
◎編  劇 Gerald Ayres
◎主  演 杰奎琳·比塞特 Jacqueline Bisset
      坎迪斯·伯根 Candice Bergen
      大衛·塞爾比 David Selby
      哈特·巴克納 Hart Bochner
      Steven Hill
      梅格·瑞恩 Meg Ryan
      Matt Lattanzi
      Daniel Faraldo
      妮可爾·埃格特 Nicole Eggert
      Joe Maross
      Kres Mersky
      Cloyce Morrow
      Cheryl Robinson
      Allan Warnick
      Ann Risley


◎標  簽 美國 | 美國電影 | 1981 | 喬治·庫克 | 劇情 | Jacqueline_Bisset | 梅格·瑞恩 | 1980s

◎簡  介

  麗姿與梅麗是摯友,自1959年從學校畢業后各奔東西,各自事業也都起起伏伏。麗姿酷愛寫作,連續多部作品受到公眾肯定,文壇地位平步青云;梅麗在嫁了曾與麗姿有過戀情的同學道格后也開始嘗試寫作,身居加州馬里布的她有很多機會與上流社會的好萊塢明星交際,她用細膩的筆觸記錄下了與明星交談的故事。在麗姿文思枯竭而又因宣傳過激政治思想而被列黑名單之時,梅麗乘勝追擊涉足文壇,處女作備受好評。自此,兩位老友開始了漫漫人生路上的競爭與坎坷……
  (by alanhe)
Video
ID : 1
Format : AVC
Format/Info : Advanced Video Codec
Format profile : [email protected]
Format settings : CABAC / 4 Ref Frames
Format settings, CABAC : Yes
Format settings, Reference frames : 4 frames
Codec ID : avc1
Codec ID/Info : Advanced Video Coding
Duration : 1 h 56 min
Bit rate : 2 500 kb/s
Width : 1 920 pixels
Height : 1 080 pixels
Display aspect ratio : 16:9
Frame rate mode : Constant
Frame rate : 23.976 (23976/1000) FPS
Color space : YUV
Chroma subsampling : 4:2:0
Bit depth : 8 bits
Scan type : Progressive
Bits/(Pixel*Frame) : 0.050
Stream size : 2.04 GiB (92%)
Writing library : x264 core 152 r2851M ba24899
Encoding settings : cabac=1 / ref=4 / deblock=1:-1:-1 / analyse=0x3:0x113 / me=umh / subme=9 / psy=1 / psy_rd=1.00:0.15 / mixed_ref=1 / me_range=24 / chroma_me=1 / trellis=2 / 8x8dct=1 / cqm=0 / deadzone=21,11 / fast_pskip=1 / chroma_qp_offset=-3 / threads=16 / lookahead_threads=4 / sliced_threads=0 / nr=0 / decimate=1 / interlaced=0 / bluray_compat=0 / constrained_intra=0 / bframes=3 / b_pyramid=2 / b_adapt=2 / b_bias=0 / direct=3 / weightb=1 / open_gop=0 / weightp=2 / keyint=250 / keyint_min=25 / scenecut=40 / intra_refresh=0 / rc_lookahead=50 / rc=2pass / mbtree=1 / bitrate=2500 / ratetol=1.0 / qcomp=0.60 / qpmin=0 / qpmax=69 / qpstep=4 / cplxblur=20.0 / qblur=0.5 / vbv_maxrate=31250 / vbv_bufsize=31250 / nal_hrd=none / filler=0 / ip_ratio=1.40 / aq=3:1.00
Encoded date : UTC 2019-11-21 08:45:59
Tagged date : UTC 2019-11-21 08:45:59
Codec configuration box : avcC

Audio
ID : 2
Format : AAC LC
Format/Info : Advanced Audio Codec Low Complexity
Codec ID : mp4a-40-2
Duration : 1 h 56 min
Bit rate mode : Constant
Bit rate : 224 kb/s
Channel(s) : 2 channels
Channel layout : L R
Sampling rate : 48.0 kHz
Frame rate : 46.875 FPS (1024 SPF)
Compression mode : Lossy
Stream size : 187 MiB (8%)
Language : English
Default : Yes
Alternate group : 1
Encoded date : UTC 2019-11-21 08:45:59
Tagged date : UTC 2019-11-21 08:45:59





1 個附件 售價 大小 下載 時間

Rich.and.Famous.1981.1080p.WEBRip.x264-RARBG.torrent 0 金幣 22.89K 322 次 2月前

#1樓
發帖時間:2019-11-21 19:57:56   |   回復數:1
911degrees
隱世仙人♂
非常感謝,謝謝分享
2月前 #2樓
游客組