conanlcg
超級版主

[2016] [歐美] [動作] [WEB-1080P] 奧克斯 Soldier.of.War.AKA.Aux.2018.1080p.AMZN.WEBRip.DDP5.1.x264-CM 5.05GB

-->

帖子完整標題:奧克斯 Soldier.of.War.AKA.Aux.2018.1080p.AMZN.WEBRip.DDP5.1.x264-CM 5.05GB




◎譯  名 奧克斯 / Soldier.of.War.AKA.Aux
◎片  名 Aux
◎年  代 2016
◎產  地 英國
◎類  別 動作 / 恐怖
◎語  言 英語
◎上映日期 2018-03-02(英國)
◎IMDb評分 4.2/10 from 234 users
◎IMDb鏈接 https://www.imdb.com/title/tt4443974
◎豆瓣評分 0/10 from 0 users
◎豆瓣鏈接 https://movie.douban.com/subject/26703128/
◎片  長 83分鐘
◎導  演 John Adams
◎編  劇 John Adams / Peter Adams
◎主  演 約翰·瑞斯-戴維斯 John Rhys-Davies
      Tanya Franks
      羅茜·費爾納 Rosie Fellner
      西奧·德瓦尼 Theo Devaney
      Paul Reynolds
      Sally Mortemore
      杰克·德格斯 Jack Derges
      James Fisher
      Gary Mavers
      Henry Douthwaite
      Patrick Pearson
      Chris Wilson
      Tristam Summers
      Samantha Lyden
      Anniwaa Buachie


◎標  簽 恐怖 | 爛片 | 超爛劇情 | 劇情 | 英國 | 美國電影 | 美國 | 動作

◎簡  介

  2個男孩發現通往一個秘密軍事燃料庫的入口,自從二戰的后就沒有被發現過。男孩們喚醒了什么恐怖的東西,一個男孩為此丟了性命,另一個在逃跑的時候被車撞了。警察開始了調查,但是一個接著一個的警察和司法人員被用奇怪和神秘的方式殺死。與此同時,在當地老人的屋子里面,一個二戰時的老兵在新聞中看到了所有事情的發展,他認識到發生了什么事情。當毀壞和毀滅在人們身邊發生的越來越嚴重的時候,有什么人會相信一個微弱的老人呢?
Video
ID : 1
Format : AVC
Format/Info : Advanced Video Codec
Format profile : [email protected]
Format settings : CABAC / 4 Ref Frames
Format settings, CABAC : Yes
Format settings, Reference frames : 4 frames
Codec ID : V_MPEG4/ISO/AVC
Duration : 1 h 21 min
Bit rate mode : Constant
Bit rate : 8 228 kb/s
Nominal bit rate : 10 000 kb/s
Width : 1 920 pixels
Height : 800 pixels
Display aspect ratio : 2.40:1
Frame rate mode : Constant
Frame rate : 23.976 (24000/1001) FPS
Color space : YUV
Chroma subsampling : 4:2:0
Bit depth : 8 bits
Scan type : Progressive
Bits/(Pixel*Frame) : 0.223
Stream size : 4.68 GiB (93%)
Default : Yes
Forced : No
Color range : Limited
Color primaries : BT.709
Transfer characteristics : BT.709
Matrix coefficients : BT.709

Audio
ID : 2
Format : E-AC-3
Format/Info : Enhanced AC-3
Commercial name : Dolby Digital Plus
Codec ID : A_EAC3
Duration : 1 h 21 min
Bit rate mode : Constant
Bit rate : 640 kb/s
Channel(s) : 6 channels
Channel layout : L R C LFE Ls Rs
Sampling rate : 48.0 kHz
Frame rate : 31.250 FPS (1536 SPF)
Compression mode : Lossy
Stream size : 373 MiB (7%)
Title : English
Language : English
Service kind : Complete Main
Default : Yes
Forced : No

Text
ID : 3
Format : UTF-8
Codec ID : S_TEXT/UTF8
Codec ID/Info : UTF-8 Plain Text
Duration : 1 h 17 min
Bit rate : 75 b/s
Count of elements : 1418
Stream size : 43.3 KiB (0%)
Title : English [SDH]
Language : English
Default : No
Forced : No





1 個附件 售價 大小 下載 時間

Soldier.of.War.AKA.Aux.2018.1080p.AMZN.WEBRip.DDP5.1.x264-CM.torrent 0 金幣 25.78K 315 次 2月前

#1樓
發帖時間:2019-11-21 19:49:46   |   回復數:1
911degrees
隱世仙人♂
非常感謝,謝謝分享
2月前 #2樓
游客組