conanlcg
超級版主

[更 早] [歐美] [劇情] [WEB-1080P] 流行教母/走佬媽咪 Raising.Helen.2004.1080p.WEBRip.x264-RARBG 2.27GB

-->

帖子完整標題:流行教母/走佬媽咪 Raising.Helen.2004.1080p.WEBRip.x264-RARBG 2.27GB




◎譯  名 流行教母 / 走佬媽咪
◎片  名 Raising Helen
◎年  代 2004
◎產  地 美國
◎類  別 劇情 / 喜劇 / 愛情
◎語  言 英語
◎上映日期 2004-05-01
◎IMDb評分 6.0/10 from 34319 users
◎IMDb鏈接 https://www.imdb.com/title/tt0350028
◎豆瓣評分 6.4/10 from 1604 users
◎豆瓣鏈接 https://movie.douban.com/subject/1309174/
◎片  長 119 分鐘
◎導  演 Garry Marshall
◎編  劇 Michael Begler / Jack Amiel
◎主  演 Kate Hudson
      John Corbett
      Joan Cusack
      Abigail Breslin
      Helen Mirren
      Paris Hilton
      Felicity Huffman


◎標  簽 美國 | 喜劇 | KateHudson | 美國電影 | 愛情 | 親情 | 2004 | AbigailBreslin

◎簡  介

  海倫?哈瑞思(凱特?哈德森 飾)深得模特公司老板的厚愛,時尚美麗的她懂得如何享受生活。可是,姐姐琳賽(菲麗西提?霍夫曼 飾)夫婦的突然離世,把三個分別只有15歲、10歲與5歲的孩子托付給海倫撫養。
  面對可憐的孩子們,海倫努力習慣被改變了的生活,盡力做好監護人應做的事。可是她發現,自己以往繁忙的工作與長時間照顧孩子是互相沖突的,更導致了她失去了她喜愛的事業。與孩子們的相處與教育上,她也遇到了困難。
  這時海倫把孩子們安排到了同一所學校就讀,也幸好得到校內牧師丹(約翰?科比特 飾)幫助海倫解除困境,兩人也在這時候發生了感情。
  到最后海倫是否能擔當好監護人的角色?她與丹的感情又能否更進一步呢?
Video
ID : 1
Format : AVC
Format/Info : Advanced Video Codec
Format profile : [email protected]
Format settings : CABAC / 4 Ref Frames
Format settings, CABAC : Yes
Format settings, Reference frames : 4 frames
Codec ID : avc1
Codec ID/Info : Advanced Video Coding
Duration : 1 h 59 min
Bit rate : 2 500 kb/s
Width : 1 920 pixels
Height : 1 080 pixels
Display aspect ratio : 16:9
Frame rate mode : Constant
Frame rate : 23.976 (23976/1000) FPS
Color space : YUV
Chroma subsampling : 4:2:0
Bit depth : 8 bits
Scan type : Progressive
Bits/(Pixel*Frame) : 0.050
Stream size : 2.08 GiB (92%)
Writing library : x264 core 152 r2851M ba24899
Encoding settings : cabac=1 / ref=4 / deblock=1:-1:-1 / analyse=0x3:0x113 / me=umh / subme=9 / psy=1 / psy_rd=1.00:0.15 / mixed_ref=1 / me_range=24 / chroma_me=1 / trellis=2 / 8x8dct=1 / cqm=0 / deadzone=21,11 / fast_pskip=1 / chroma_qp_offset=-3 / threads=16 / lookahead_threads=4 / sliced_threads=0 / nr=0 / decimate=1 / interlaced=0 / bluray_compat=0 / constrained_intra=0 / bframes=3 / b_pyramid=2 / b_adapt=2 / b_bias=0 / direct=3 / weightb=1 / open_gop=0 / weightp=2 / keyint=250 / keyint_min=25 / scenecut=40 / intra_refresh=0 / rc_lookahead=50 / rc=2pass / mbtree=1 / bitrate=2500 / ratetol=1.0 / qcomp=0.60 / qpmin=0 / qpmax=69 / qpstep=4 / cplxblur=20.0 / qblur=0.5 / vbv_maxrate=31250 / vbv_bufsize=31250 / nal_hrd=none / filler=0 / ip_ratio=1.40 / aq=3:1.00
Encoded date : UTC 2019-11-21 10:09:52
Tagged date : UTC 2019-11-21 10:09:52
Codec configuration box : avcC

Audio
ID : 2
Format : AAC LC
Format/Info : Advanced Audio Codec Low Complexity
Codec ID : mp4a-40-2
Duration : 1 h 59 min
Bit rate mode : Constant
Bit rate : 224 kb/s
Channel(s) : 6 channels
Channel layout : C L R Ls Rs LFE
Sampling rate : 48.0 kHz
Frame rate : 46.875 FPS (1024 SPF)
Compression mode : Lossy
Stream size : 191 MiB (8%)
Language : English
Default : Yes
Alternate group : 1
Encoded date : UTC 2019-11-21 10:09:52
Tagged date : UTC 2019-11-21 10:09:52





1 個附件 售價 大小 下載 時間

Raising.Helen.2004.1080p.WEBRip.x264-RARBG.torrent 0 金幣 23.30K 203 次 2月前

#1樓
發帖時間:2019-11-21 19:37:50   |   回復數:1
911degrees
隱世仙人♂
非常感謝,謝謝分享
2月前 #2樓
游客組